動画

動画を画像に変換するオンラインツール!

カテゴリー: 動画


動画ファイル「mp4」「wmv」「mpg(mpeg)」を画像に変換できるオンラインツールです。

1.画像に変換したい動画ファイルを選択しよう!

下の2つの方法から画像に変換したい動画を選択できます。

※動画ファイルのサイズが大きい場合、アップロードに5分ほどかかる場合もあります。

自分が持っている動画ファイルを画像化させる!(こちらをクリック)

方法1:下の灰色部分に画像に変換したい動画ファイルをドラッグ&ドロップする
方法2:下の灰色部分をクリックして画像に変換したい動画ファイルを選択する

動画ファイルをここにドロップ
or
クリックして選択

Web上にある動画ファイルを画像化させる!(こちらをクリック)

画像に変換したい動画ファイルのURLを下のフォームに入力し、「実行」を押してください。

Dailymotion保存 or 広告ブロックツール!

カテゴリー: 動画


Dailymotion動画を保存 or 広告をブロックして閲覧できるオンラインツールです。

1.Dailymotion動画のURL IDを入力しよう!

下にある「例」を参考に動画URLのID(赤文字部分)を入力して「次へ」をクリック!

例:https://www.dailymotion.com/video/x7emf1v

例:https://www.dailymotion.com/video/x7emf1v?playlist=x6g3d0

ツールの概要

指定したDailymotion動画をダウンロード or 広告をブロックして閲覧できるオンラインツールです。

使い方

1.Dailymotion動画のURL IDを入力

2.出現したリンクをクリックしてDailymotion動画のページにアクセス

3.アクセスしたDailymotion動画ページのソースコードをテキストエリアにコピペして「実行」を押す

4.Dailymotion動画へのリンクが表示されるので閲覧or保存(右クリックすると保存コマンドがある)する

※著作権を侵害している動画はダウンロードしないでください。

お願い

  • 動かない
  • バグ・脆弱性がある

など、なにかお気づきな点があればコメント欄で教えてください。

※動かない場合はお使いのブラウザの情報を教えてください。

動画サイズ 変更オンラインツール!

カテゴリー: 動画


動画ファイル「mp4」「wmv」「mpg(mpeg)」のサイズを変更(縮小・拡大)できるオンラインツールです。

1.サイズを変更する動画ファイルを選択しよう!

下の2つの方法から動画のサイズを縮小・拡大できます。

※動画ファイルのサイズが大きい場合、アップロードに5分ほどかかる場合もあります。

自分が持っている動画ファイルのサイズを変更!(こちらをクリック)

方法1:下の灰色部分にサイズを変更したい動画ファイルをドラッグ&ドロップする
方法2:下の灰色部分をクリックしてサイズを変更したい動画ファイルを選択する

サイズを変更したい動画ファイルを
ここにドロップ
or
クリックして選択

Web上にある動画ファイルのサイズを変更!(こちらをクリック)

サイズを変更したい動画ファイルのURLを下のフォームに入力し、「実行」を押してください。

ツールの概要

以下の動画ファイルのサイズを変更(縮小・拡大)することができるオンラインツールです。

  • mp4
  • wmv
  • mpg(mpeg)

端末内(パソコン内、スマートフォン内)の動画ファイルはもちろんのこと、Web上の動画ファイルも指定できます。

サイズを変更した動画ファイルはリンクボタンをクリックすることでダウンロード可能です。

使い方

1.動画サイズを変更したいファイルを、

  • ドラッグ&ドロップ
  • ファイル参照フォーム

のいずれかの方法で選択します。

また、

  • Web上の動画ファイル

も指定できます。

2.指定した動画の横幅が表示されるので、元の横幅より小さい数値を指定した場合は縮小、大きい数値を指定した場合は拡大されます。

3.実行ボタンを押すと自動的にサイズ変更が開始されるので、終了後にサイズ変更した動画ファイルをダウンロードできます。

お願い

  • 動かない
  • バグ・脆弱性がある

など、なにかお気づきな点があればコメント欄で教えてください。

※動かない場合はお使いのブラウザの情報を教えてください。

動画情報取得オンラインツール!

カテゴリー: 動画


動画ファイル「mp4」「wmv」「mpg(mpeg)」の各種情報を取得できるオンラインツールです。

1.情報を取得したい動画ファイルを選択しよう!

下の2つの方法から情報を取得したい動画ファイルを選択できます。

※動画ファイルのサイズが大きい場合、アップロードに5分ほどかかる場合もあります。

自分が持っている動画ファイルの情報を取得する!(こちらをクリック)

方法1:下の灰色部分に情報を取得したい動画ファイルをドラッグ&ドロップする
方法2:下の灰色部分をクリックして情報を取得した動画ファイルを選択する

情報を取得したい動画ファイルを
ここにドロップ
or
クリックして選択

Web上にある動画ファイルの情報を取得する!(こちらをクリック)

情報を取得したい動画ファイルのURLを下のフォームに入力し、「実行」を押してください。

サンプル

「Tobu」のYouTubeにアップされている「Tobu & Itro - Fantasy」をMP4形式でダウンロードして動画情報を取得すると、次の情報が取得できます。

フォーマット(Format)

Metadata:
major_brand : mp42
minor_version : 0
compatible_brands: isommp42
creation_time : 2016-08-15 12:25:50
Duration: 00:03:01.88, start: 0.000000, bitrate: 842 kb/s

Duration」は動画の再生時間を、「start」は情報を取得した動画ファイルが全体(セグメントファイルの大元)のうちのどの時間から始まっているか、「bitrate」は動画のビットレートを示しています。

ストリーム(Stream)

Stream #0:0(und): Video: h264 (Main) (avc1 / 0x31637661), yuv420p(tv, bt709), 1280x720 [SAR 1:1 DAR 16:9], 712 kb/s, 29.97 fps, 29.97 tbr, 90k tbn, 59.94 tbc (default)
Metadata:
creation_time : 2016-08-15 12:25:50
handler_name : ISO Media file produced by Google Inc.
Stream #0:1(und): Audio: aac (LC) (mp4a / 0x6134706D), 44100 Hz, stereo, fltp, 125 kb/s (default)
Metadata:
creation_time : 2016-08-15 12:25:50
handler_name : ISO Media file produced by Google Inc.

コンテナ内のストリーム情報です。動画ストリームは「Video」に、音声ストリームは「Audio」となります。

Video」の場合、コーデック色空間の情報解像度ビットレートフレームレート、各種時間基準が表示されます。

Audio」の場合、コーデックサンプリングレートチャンネル符号化方法ビットレートが表示されます。

なお、tbr, tbn, tbcはそれぞれの逆数が実際のタイムベースとなります。

  • tbr: 実際にビデオを表示する際に参照するレート。ビデオストリームからの類推値。インタレースだと倍値になってたりする。
  • tbn: コンテナ側に書かれたストリームのタイムベース。
  • tbc: 特定のコーデックにだけ存在するコーデック側のタイムベース。

参照:http://qiita.com/ymotongpoo/items/eb9754b75606be117b70

ツールの概要

以下の動画ファイルの情報を取得することができるオンラインツールです。

  • mp4
  • wmv
  • mpg(mpeg)

端末内(パソコン内、スマートフォン内)の動画ファイルはもちろんのこと、Web上の動画ファイルも指定できます。

使い方

1.情報を取得したい動画ファイルを、

  • ドラッグ&ドロップ
  • ファイル参照フォーム

のいずれかの方法で選択します。

また、

  • Web上の動画ファイル

も指定できます。

2.自動的に動画ファイルの分析が始まり、終了後に各種情報が出力されます。

お願い

  • 動かない
  • バグ・脆弱性がある

など、なにかお気づきな点があればコメント欄で教えてください。

※動かない場合はお使いのブラウザの情報を教えてください。

動画の音を消すオンラインツール!

カテゴリー: 動画


動画ファイル「mp4」「wmv」「mpg(mpeg)」の音声を消すオンラインツールです(一度に10ファイルまで実行できます)。

1.音を消す動画ファイルを選択しよう!

下の2つの方法から動画の音を消すことができます(複数可)。

※動画ファイルのサイズが大きい場合、変換時間に5分ほどかかる場合もあります。

自分が持っている動画ファイルの音を消す!(こちらをクリック)

方法1:下の灰色部分に音を消したい動画ファイルをドラッグ&ドロップする
方法2:下の灰色部分をクリックして音を消したい動画ファイルを選択する

音を消したい動画ファイルをここにドロップ
or
クリックして選択

Web上にある動画ファイルの音を消す!(こちらをクリック)

音を消したい動画ファイルのURLを下のフォームに入力し、「実行」を押してください。

複数の動画URLを指定する場合、改行してください。

ツールの概要

以下の動画ファイルの音声を消すことができるオンラインツールです(一度に10ファイルまで実行できます)。

  • mp4
  • wmv
  • mpg(mpeg)

端末内(パソコン内、スマートフォン内)の動画ファイルはもちろんのこと、Web上の動画ファイルも指定できます。

音声を消した動画ファイルはリンクボタンをクリックすることでダウンロード可能です。

使い方

1.音を削除したい動画ファイルを、

  • ドラッグ&ドロップ
  • ファイル参照フォーム

のいずれかの方法で選択します(複数可)。

また、

  • Web上の動画ファイル

も指定できます。

2.自動的に音声削除機能が開始され、終了後に音を消した動画ファイルをダウンロードできます。

お願い

  • 動かない
  • バグ・脆弱性がある

など、なにかお気づきな点があればコメント欄で教えてください。

※動かない場合はお使いのブラウザの情報を教えてください。